4K时代

 找回密码
 立即注册

QQ登录

只需一步,快速开始

搜索
查看: 2154|回复: 14

[4K风景视频] 我的浪漫的城市 - 巴塞罗那[2160P/MKV/3.88GB]

[复制链接]
发表于 2020-11-30 20:23:37 | 显示全部楼层 |阅读模式
My Romantic cities - Barcelona (4K 2160p UHDTV HEVC AC3 En) Lotos2007

234706oip8i8stsc38bp8o.jpg
234704d0grkb50kk8v8w8n.jpg
234706tr0r20rar2af5rrr.jpg
234708qt7zs73tgvvjymgw.jpg

Video
ID : 1
Format : HEVC
Format/Info : High Efficiency Video Coding
Format profile : High@L5.1@Main
Codec ID : V_MPEGH/ISO/HEVC
Duration : 22min 29s
Bit rate : 24.3 Mbps
Width : 3840 pixels
Height : 2160 pixels
Display aspect ratio : 16:9
Frame rate mode : Constant
Frame rate : 50.000 fps
Color space : YUV
Chroma subsampling : 4:2:0
Bit depth : 10 bits
Bits/(Pixel*Frame) : 0.059
Stream size : 3.81 GiB (98%)
Writing library : x264 1.7:[Mac OS X][clang 6.1.0][64 bit] 16bpp
Encoding settings : wpp/ctu=64 / min-cu-size=8 / max-tu-size=32 / tu-inter-depth=1 / me=1 / psy=1 / subme=2 / merange=57 / no-rect / no-amp / max-merge=2 / temporal-mvp / no-early-skip /  rdpenalty=0 / no-tskip / no-tskip-fast / strong-intra-smoot
Default : Yes
Forced : No

Audio
Format : AC-3
Format/Info : Audio Coding 3
Mode extension : CM (complete main)
Format settings, Endianness : Big
Codec ID : A_AC3
Duration : 22min 29s
Bit rate mode : Constant  
Bit rate : 448 Kbps  
Channel(s) : 2 channels
Channel positions : Front: L R
Sampling rate : 48.0 KHz
Frame rate : 31.250 fps (1536 spf)
Compression mode : Lossy
Stream size : 72.1 MiB (2%)
Language : English
Default : Yes
Forced : No

我的浪漫的城市 - 巴塞罗那下载:


My Romantic cities - Barcelona (4K 2160p UHDTV HEVC AC3 En)【4ksd.com】.torrent
回复

使用道具 举报

发表于 2020-11-30 22:12:45 | 显示全部楼层
感谢楼主分享,楼主大好人啊!!
回复

使用道具 举报

发表于 2020-12-3 06:45:26 | 显示全部楼层
哎呀呀,我要看
回复

使用道具 举报

发表于 2020-12-29 15:01:10 | 显示全部楼层
正需要,谢谢!
回复

使用道具 举报

发表于 2021-1-26 18:07:37 | 显示全部楼层
下来看看下来看看下来看看
回复

使用道具 举报

发表于 2021-2-6 07:11:12 | 显示全部楼层
感谢分享
回复

使用道具 举报

发表于 2021-2-7 16:29:12 | 显示全部楼层
下载测试以下
回复

使用道具 举报

发表于 2021-2-13 18:03:01 | 显示全部楼层
哎呀呀,我要看
回复

使用道具 举报

发表于 2021-3-2 14:08:54 | 显示全部楼层
谢谢楼主分享,收藏了,感谢4K时代这个网站
回复

使用道具 举报

发表于 2021-3-3 07:52:02 | 显示全部楼层
谢谢分享!
回复

使用道具 举报

您需要登录后才可以回帖 登录 | 立即注册

本版积分规则

关闭

站长推荐上一条 /1 下一条

SiteMap|4K时代

GMT+8, 2021-4-11 17:53 , Processed in 0.070644 second(s), 38 queries .

Powered by Discuz! X3.4

Copyright © 2001-2020, Tencent Cloud.

快速回复 返回顶部 返回列表