4K时代

 找回密码
 立即注册

QQ登录

只需一步,快速开始

搜索
查看: 12301|回复: 109

[4K风景视频] 《韵动中国2019》4K 记录我们最真最美的祖国!

  [复制链接]
发表于 2020-11-30 16:32:37 | 显示全部楼层 |阅读模式
国内外70余位顶级延时摄影师历时一年,走遍神州大地,只为寻觅那最绚丽的色彩和最壮美的风景,记录我们最真最美的祖国!

韵动中国2019 4K视频信息:
Format                      : AVC
Duration                    : 11mn 20s
Bit rate                       : 14.7 Mbps
Nominal bit rate         : 16.0 Mbps
Width                          : 3 840 pixels
Height                         : 2 160 pixels
Display aspect ratio    : 16:9
Frame rate                     : 29.970 (30000/1001) fps
Chroma subsampling     : 4:2:0
Bit depth                       : 8 bits
Stream size                    : 1.16 GiB (99%)
Format                           : AAC
Duration                       : 11mn 20s
Bit rate                          : 140 Kbps
Channel(s)                     : 2 channels
Channel positions          : Front: L R
Sampling rate                : 48.0 KHz
Frame rate                     : 46.875 fps (1024 spf)
Stream size                    : 11.3 MiB (1%)

145650s0oi7dz520g2qsgi.jpg
145649pposrlcvvye9csor.jpg
145647tzvlrp7loxl9v9wd.jpg
145648qx0x42dglegebd0i.jpg
145649ku0ckcuyruc2punu.jpg
145648ccq0g38706173702.jpg
145649hxj8vvg6w3uw0n91.jpg

《韵动中国2019》4K 记录我们最真最美的祖国!:


链接: https://pan.baidu.com/s/1iKoYL71AEqMcwfgHJFJSFw
提取码:
游客,如果您要查看本帖隐藏内容请回复
回复

使用道具 举报

发表于 2020-11-30 16:59:40 | 显示全部楼层
好资源,谢谢分享~
回复

使用道具 举报

发表于 2020-11-30 23:10:46 | 显示全部楼层
测试投影仪
回复

使用道具 举报

发表于 2020-12-2 07:53:32 | 显示全部楼层
下来看看,谢谢分享
回复

使用道具 举报

发表于 2020-12-4 20:23:32 | 显示全部楼层
我要下载,请告诉我提取码
回复

使用道具 举报

发表于 2020-12-15 13:03:51 | 显示全部楼层
给力给力给力给力给力
回复

使用道具 举报

发表于 2020-12-20 12:43:07 | 显示全部楼层
谢谢分享
回复

使用道具 举报

发表于 2020-12-25 00:17:03 | 显示全部楼层
感谢分享 十分不错
回复

使用道具 举报

发表于 2020-12-27 12:46:52 | 显示全部楼层
这个有没有我们黑龙江
回复

使用道具 举报

发表于 2021-1-3 15:54:13 | 显示全部楼层
可以
不错哈
回复

使用道具 举报

您需要登录后才可以回帖 登录 | 立即注册

本版积分规则

关闭

站长推荐上一条 /1 下一条

SiteMap|4K时代

GMT+8, 2021-4-11 18:00 , Processed in 0.071505 second(s), 38 queries .

Powered by Discuz! X3.4

Copyright © 2001-2020, Tencent Cloud.

快速回复 返回顶部 返回列表